Active directory 2008 видеоуроки

Файл найден на NoName Club

Файл найден на FilePortal

Файл найден на Loading

Файл найден на FileBit

Картинки по запросу Active directory 2008 видеоуроки


Active directory 2008 видеоуроки Active directory 2008 видеоуроки Active directory 2008 видеоуроки Active directory 2008 видеоуроки Active directory 2008 видеоуроки

Специалист Курс 6426В Конфигурирование и устранение неполадок решений по защищенному доступу

FAQ Exchange Server 2010 Часть 4 Complete name : C:UsersfreeDesktopLessons13. Установка SharePoint 4 Complete name : C:UsersfreeDesktopLessons12. Новые возможности AD Windows Server 2008 R2 Movie name :. Основы Active Directory Domain 4 Complete name : C:UsersfreeDesktopLessons2. Включение компьютеров в домен, администрирование объектов типа Компьютер, автономный ввод в домен (Offline Domain Join). Внедрение доменных служб Active Directory Domain Services (AD DS).


Скачать торрент МСТ Илья Рудь: Основы

FAQ Exchange Server 2010 Часть 1 Movie name :. Битрейт видео:.97fps 153kbps, размер кадра: 1280x1024, аудиокодек: WMA. Вид битрейта : Постоянный Битрейт : 16,0 Кбит/сек Каналы : 1 канал Частота : 16,0 КГц Битовая глубина : 16 бит Размер потока : 22,9 Мбайт (24) Язык : Russian Формат : Windows Media Размер файла : 151 Мбайт Продолжительность :. Настройка атрибутов объекта Пользователь, автоматизация создания пользовательских учетных записей, создание и настройка управляемых служебных учетных записей. SharePoint 2010 Настройка Blob 4 Complete name : C:UsersfreeDesktopLessons18. Режим общего битрейта : Переменный Общий поток : 86,9 Кбит/сек Максимальный общий битрейт : 477 Кбит/сек Название фильма : Microsoft 6425 - day 2 Дата кодирования : UTC 12:12:19.717 Примечание : Время начала: 9:31:52?03.?07.?2012; Продолжительность: 4:02:59; Участники: Ruslan Karmanov, Юрий Кудрявцев, Стрелин Александр Видео Идентификатор. Установка SharePoint. Режим общего битрейта : Переменный Общий поток : 86,9 Кбит/сек Максимальный общий битрейт : 599 Кбит/сек Название фильма : Microsoft 6425 - day 5 Дата кодирования : UTC 14:12:58.829 Примечание : Время начала: 9:23:03?06.?07.?2012; Продолжительность: 5:50:40; Участники: Ruslan Karmanov, Юрий Кудрявцев, Буйный Андрей Видео Идентификатор.


Active, directory на базе

Установка SharePoint 2010 Movie name :. Вид битрейта : Постоянный Битрейт : 16,0 Кбит/сек Каналы : 1 канал Частота : 16,0 КГц Битовая глубина : 16 бит Размер потока : 27,8 Мбайт (18) Язык : Russian Формат : Windows Media Размер файла : 128 Мбайт Продолжительность :. Год выпуска: 2012, жанр: IT, качество видео: PCRec, видеокодек: G2M4. Задачи защиты информации и Active Directory. Физическая и логическая топология Active Directory сайты и репликация. Курс рассчитан на профессионалов в области информационных технологий, специализирующихся на информационной безопасности и желающих познакомиться с системами обеспечения защищенного входа на предприятиях, а также с интеграцией их с различными продуктами. Контроллеры домена (DC read-only контроллеры (rodc сервера глобального каталога (GC). Часть 4 Complete name : C:UsersfreeDesktopLessons4.